In the Heights (2021)

dramat

Motylek
Posty: 1818
Rejestracja: 18 maja 2020, 16:14

In the Heights (2021)

Post autor: Motylek » 14 cze 2021, 20:37

[center]In the Heights (2021) 2160p.HMAX.WEB-DL.x265.10bit.HDR.DDP5.1.Atmos-CM

18.61 GB

Obrazek

gatunek Dramat / Musical
produkcja USA
 

Aromat cafecito caliente unosi się w powietrzu niedaleko stacji metra przy 181. Ulicy, gdzie istny kalejdoskop marzeń nakręca dynamiczną i zżytą społeczność. W tej właśnie dzielnicy mieszka sympatyczny, obdarzony magnetyczną osobowością właściciel sklepiku Usnavi (Anthony Ramos). Odkłada on każdy grosz z codziennego utargu, karmiąc się nadzieją i fantazją oraz śpiewając o lepszym życiu.
 
screen
 
info
Spoiler
Show
Video
ID : 1
Format : HEVC
Format/Info : High Efficiency Video Coding
Format profile : Main [email protected]@Main
HDR format : SMPTE ST 2086, HDR10 compatible
Codec ID : V_MPEGH/ISO/HEVC
Duration : 2 h 22 min
Bit rate : 17.9 Mb/s
Width : 3 840 pixels
Height : 2 160 pixels
Display aspect ratio : 16:9
Frame rate mode : Constant
Frame rate : 23.976 (24000/1001) FPS
Color space : YUV
Chroma subsampling : 4:2:0
Bit depth : 10 bits
Bits/(Pixel*Frame) : 0.090
Stream size : 17.8 GiB (96%)
Default : Yes
Forced : No
Color range : Limited
Color primaries : BT.2020
Transfer characteristics : PQ
Matrix coefficients : BT.2020 non-constant
Mastering display color primaries : Display P3
Mastering display luminance : min: 0.0001 cd/m2, max: 1000 cd/m2
Maximum Content Light Level : 721 cd/m2
Maximum Frame-Average Light Level : 227 cd/m2

Audio
ID : 2
Format : E-AC-3 JOC
Format/Info : Enhanced AC-3 with Joint Object Coding
Commercial name : Dolby Digital Plus with Dolby Atmos
Codec ID : A_EAC3
Duration : 2 h 22 min
Bit rate mode : Constant
Bit rate : 768 kb/s
Channel(s) : 6 channels
Channel layout : L R C LFE Ls Rs
Sampling rate : 48.0 kHz
Frame rate : 31.250 FPS (1536 SPF)
Compression mode : Lossy
Stream size : 785 MiB (4%)
Title : English
Language : English
Service kind : Complete Main
Default : No
Forced : No
Complexity index : 16
Number of dynamic objects : 15
Bed channel count : 1 channel
Bed channel configuration : LFE

Text #1
ID : 3
Format : UTF-8
Codec ID : S_TEXT/UTF8
Codec ID/Info : UTF-8 Plain Text
Duration : 2 h 22 min
Bit rate : 38 b/s
Count of elements : 1772
Stream size : 40.1 KiB (0%)
Title : English
Language : English
Default : No
Forced : No

Text #2
ID : 4
Format : UTF-8
Codec ID : S_TEXT/UTF8
Codec ID/Info : UTF-8 Plain Text
Duration : 2 h 22 min
Bit rate : 75 b/s
Count of elements : 2294
Stream size : 78.6 KiB (0%)
Title : English [SDH]
Language : English
Default : No
Forced : No

Kod: Zaznacz cały

https://rapidu.net/081088942872708/In.the.Heights.2021.4kCM.part04.rar
https://rapidu.net/451088942856428/In.the.Heights.2021.4kCM.part01.rar
https://rapidu.net/911088942818136/In.the.Heights.2021.4kCM.part02.rar
https://rapidu.net/501088942796905/In.the.Heights.2021.4kCM.part03.rar
https://rapidu.net/241088942771427/In.the.Heights.2021.4kCM.part06.rar
https://rapidu.net/391088942710942/In.the.Heights.2021.4kCM.part08.rar
https://rapidu.net/751088942567245/In.the.Heights.2021.4kCM.part10.rar
https://rapidu.net/041088942554968/In.the.Heights.2021.4kCM.part07.rar
https://rapidu.net/211088942283192/In.the.Heights.2021.4kCM.part09.rar
https://rapidu.net/671088942196835/In.the.Heights.2021.4kCM.part11.rar

https://ddownload.com/0ibtlncwkyl3/In.the.Heights.2021.4kCM.part11.rar
https://ddownload.com/3gonfubwhl4j/In.the.Heights.2021.4kCM.part10.rar
https://ddownload.com/xojksr8vvqbr/In.the.Heights.2021.4kCM.part09.rar
https://ddownload.com/3e6uympqlhy6/In.the.Heights.2021.4kCM.part08.rar
https://ddownload.com/xb6ztkrr8rux/In.the.Heights.2021.4kCM.part07.rar
https://ddownload.com/uenckwhc8cmd/In.the.Heights.2021.4kCM.part06.rar
https://ddownload.com/pp12ve89jsex/In.the.Heights.2021.4kCM.part05.rar
https://ddownload.com/m4orz3v2tm3j/In.the.Heights.2021.4kCM.part04.rar
https://ddownload.com/dmzs20p5ilnd/In.the.Heights.2021.4kCM.part03.rar
https://ddownload.com/5uz5bmicftz7/In.the.Heights.2021.4kCM.part02.rar
https://ddownload.com/ovqcs3ovdgye/In.the.Heights.2021.4kCM.part01.rar

https://wrzucajpliki.pl/7zedagfyrqa7/In.the.Heights.2021.4kCM.part11.rar
https://wrzucajpliki.pl/13b1p40v67v1/In.the.Heights.2021.4kCM.part10.rar
https://wrzucajpliki.pl/stqib910mka8/In.the.Heights.2021.4kCM.part09.rar
https://wrzucajpliki.pl/23qkzgqtvtcg/In.the.Heights.2021.4kCM.part08.rar
https://wrzucajpliki.pl/5mxh3upsndta/In.the.Heights.2021.4kCM.part07.rar
https://wrzucajpliki.pl/xwvhvf4p9ed3/In.the.Heights.2021.4kCM.part06.rar
https://wrzucajpliki.pl/jgqipp0scnue/In.the.Heights.2021.4kCM.part05.rar
https://wrzucajpliki.pl/runzlen6ayv6/In.the.Heights.2021.4kCM.part04.rar
https://wrzucajpliki.pl/wf83i5n0tsc8/In.the.Heights.2021.4kCM.part03.rar
https://wrzucajpliki.pl/h1wwdlbnt63f/In.the.Heights.2021.4kCM.part02.rar
https://wrzucajpliki.pl/8td6ftoor7bd/In.the.Heights.2021.4kCM.part01.rar

https://rapidgator.net/file/c3027812354281a66771b350fd95b3a0/In.the.Heights.2021.4kCM.part11.rar.html
https://rapidgator.net/file/55aa590ad7fc3364dafc19d5222ef456/In.the.Heights.2021.4kCM.part10.rar.html
https://rapidgator.net/file/5d6a5ff103928ecaa7c6bc4be219a238/In.the.Heights.2021.4kCM.part09.rar.html
https://rapidgator.net/file/99b969f54f7ffbb3fd69d58688327c99/In.the.Heights.2021.4kCM.part08.rar.html
https://rapidgator.net/file/8c306fd81eeefaa58618fae08f2966a8/In.the.Heights.2021.4kCM.part07.rar.html
https://rapidgator.net/file/2b8c0da1cdd42343f2034b1dfe095c41/In.the.Heights.2021.4kCM.part06.rar.html
https://rapidgator.net/file/fc5708aa8d1df2ecbabb3b4627011583/In.the.Heights.2021.4kCM.part05.rar.html
https://rapidgator.net/file/ac4534c55cd75cace38c5f14c882dfe0/In.the.Heights.2021.4kCM.part04.rar.html
https://rapidgator.net/file/dc2db385254986e312e7025395607707/In.the.Heights.2021.4kCM.part03.rar.html
https://rapidgator.net/file/98648c99c057e72502b86d48b499bd82/In.the.Heights.2021.4kCM.part02.rar.html
https://rapidgator.net/file/0dd9dd890b3b1a53222e77155edfbc2b/In.the.Heights.2021.4kCM.part01.rar.html

https://katfile.com/qw5olhhd9l83/In.the.Heights.2021.4kCM.part01.rar.html
https://katfile.com/2ursrk7a8l4u/In.the.Heights.2021.4kCM.part02.rar.html
https://katfile.com/aantpmntd1jp/In.the.Heights.2021.4kCM.part03.rar.html
https://katfile.com/43nmlth9ykrt/In.the.Heights.2021.4kCM.part04.rar.html
https://katfile.com/bbtwmd03szra/In.the.Heights.2021.4kCM.part05.rar.html
https://katfile.com/zh0ghpgqtolm/In.the.Heights.2021.4kCM.part06.rar.html
https://katfile.com/hnty3sg8zot7/In.the.Heights.2021.4kCM.part07.rar.html
https://katfile.com/vk3th9lp49dr/In.the.Heights.2021.4kCM.part08.rar.html
https://katfile.com/zma7fbp2bfpp/In.the.Heights.2021.4kCM.part09.rar.html
https://katfile.com/51rdrqwyvpb4/In.the.Heights.2021.4kCM.part10.rar.html
https://katfile.com/ann6yft2ru7q/In.the.Heights.2021.4kCM.part11.rar.html
[/center]

ODPOWIEDZ